The.Chamber.2016.BRrip.x264-MERDA[PRiME]

  • Category Movies
  • Type Divx/Xvid
  • Language English
  • Total size 710.1 MB
  • Uploaded By sub7
  • Downloads 15
  • Last checked 7 months ago
  • Date uploaded 1 year ago
  • Seeders 0
  • Leechers 1

Infohash : A5C68AB25DA99A688A61338DD8D37011151BFCA2


The.Chamber.2016.BRrip.x264-MERDA[PRiME]

ImDb: http://www.imdb.com/title/tt5167934



Complete name : The.Chamber.2016.BRrip.x264-MERDA[PRiME].mkv
Format : Matroska
Format version : Version 4 / Version 2
File size : 710 MiB
Duration : 1 h 30 min
Overall bit rate : 1 101 kb/s
Movie name : The.Chamber.2016.720p.BluRay.x264-ROVERS
Encoded date : UTC 2017-03-21T17:21:07Z
Writing application : HandBrake 1.0.3 2017022500
Writing library : Lavf57.7.2 / Lavf57.7.2

Video
ID : 1
Format : AVC
Format/Info : Advanced Video Codec
Format profile : [email protected]
Format settings, CABAC : Yes
Format settings, ReFrames : 4 frames
Codec ID : V_MPEG4/ISO/AVC
Duration : 1 h 30 min
Bit rate : 631 kb/s
Width : 720 pixels
Height : 480 pixels
Display aspect ratio : 1.85:1
Frame rate mode : Constant
Frame rate : 24.000 FPS
Color space : YUV
Chroma subsampling : 4:2:0
Bit depth : 8 bits
Scan type : Progressive
Bits/(Pixel*Frame) : 0.076
Stream size : 407 MiB (57%)
Writing library : x264 core 148 r2643 5c65704
Encoding settings : cabac=1 / ref=2 / deblock=1:0:0 / analyse=0x1:0x111 / me=hex / subme=6 / psy=1 / psy_rd=1.00:0.00 / mixed_ref=1 / me_range=16 / chroma_me=1 / trellis=1 / 8x8dct=0 / cqm=0 / deadzone=21,11 / fast_pskip=1 / chroma_qp_offset=-2 / threads=12 / lookahead_threads=2 / sliced_threads=0 / nr=0 / decimate=1 / interlaced=0 / bluray_compat=0 / constrained_intra=0 / bframes=3 / b_pyramid=2 / b_adapt=1 / b_bias=0 / direct=1 / weightb=1 / open_gop=0 / weightp=1 / keyint=240 / keyint_min=24 / scenecut=40 / intra_refresh=0 / rc_lookahead=30 / rc=crf / mbtree=1 / crf=20.0 / qcomp=0.60 / qpmin=0 / qpmax=69 / qpstep=4 / vbv_maxrate=14000 / vbv_bufsize=14000 / crf_max=0.0 / nal_hrd=none / filler=0 / ip_ratio=1.40 / aq=1:1.00
Default : Yes
Forced : No
Color range : Limited
Color primaries : BT.709
Transfer characteristics : BT.709
Matrix coefficients : BT.709

Audio
ID : 2
Format : AC-3
Format/Info : Audio Coding 3
Format profile : Dolby Digital
Mode extension : CM (complete main)
Format settings, Endianness : Big
Codec ID : A_AC3
Duration : 1 h 30 min
Bit rate mode : Constant
Bit rate : 448 kb/s
Channel(s) : 2 channels
Channel positions : Front: L R
Sampling rate : 48.0 kHz
Frame rate : 31.250 FPS (1536 spf)
Compression mode : Lossy
Delay relative to video : -5 ms
Stream size : 289 MiB (41%)
Title : Stereo
Language : English
Default : Yes
Forced : No

Menu
00:00:00.000 : :00:00:00.000
00:09:51.500 : :00:09:51.500
00:18:30.708 : :00:18:30.625
00:25:45.625 : :00:25:45.625
00:31:32.375 : :00:31:32.375
00:36:06.375 : :00:36:06.375
00:41:50.375 : :00:41:50.375
00:48:30.083 : :00:48:30.083
00:58:16.292 : :00:58:16.292
01:07:04.625 : :01:07:04.625
01:17:34.375 : :01:17:34.292
01:24:10.375 : :01:24:10.375




Click Image To View Full Size


Click To View Screenshot
Click To View Screenshot
Click To View Screenshot

Files:

The.Chamber.2016.BRrip.x264-MERDA[PRiME]
  • Please Support!! Read More!!!.txt (0.2 KB)
  • The.Chamber.2016.BRrip.x264-MERDA[PRiME].mkv (710.1 MB)
  • Torrent Downloaded From maxxclarkhouses.com.txt (0.1 KB)
  • Torrent Downloaded From ExtraTorrent.cc.txt (0.4 KB)

There are currently no comments. Feel free to leave one :)

Code:

  • udp://tracker.ilibr.org:6969/announce
  • udp://tracker.coppersurfer.tk:6969
  • udp://tracker.ilibr.org:80/announce
  • udp://tracker.coppersurfer.tk:6969/announce
  • udp://tracker.leechers-paradise.org:6969/announce
  • udp://tracker.opentrackr.org:1337/announce
  • udp://tracker.zer0day.to:1337/announce
  • udp://ipv4.tracker.harry.lu:80/announce
  • udp://p4p.arenabg.ch:1337/announce
  • udp://p4p.arenabg.com:1337/announce
  • udp://9.rarbg.com:2710/announce
  • udp://9.rarbg.to:2710/announce
  • udp://9.rarbg.me:2710/announce
  • udp://explodie.org:6969/announce
  • udp://eddie4.nl:6969/announce
SitemapIndie Folk | 01.22 천공의 눈 (Eye in the Sky, 跟蹤, 범죄/스릴러, 2007) 영화 다시보기 | Accidental Farmer